<?xml version="1.0" standalone="no"?>
<!DOCTYPE svg PUBLIC "-//W3C//DTD SVG 1.1//EN" "http://www.w3.org/Graphics/SVG/1.1/DTD/svg11.dtd" >
<svg xmlns="http://www.w3.org/2000/svg">
<metadata>Generated by IcoMoon</metadata>
<defs>
<font id="icomoon" horiz-adv-x="1024">
<font-face units-per-em="1024" ascent="960" descent="-64" />
<missing-glyph horiz-adv-x="1024" />
<glyph unicode="&#x20;" horiz-adv-x="512" d="" />
<glyph unicode="&#xe900;" glyph-name="Arrow-chevron-left" d="M678.238 771.014c20.531-21.117 20.062-54.883-1.058-75.417l-267.824-260.431 267.824-260.429c21.12-20.535 21.589-54.302 1.058-75.418-20.535-21.116-54.302-21.589-75.418-1.058l-292.649 284.57c-0.010 0.009-0.019 0.021-0.029 0.030-14 13.606-22.153 32.393-22.153 52.305 0 19.917 8.153 38.699 22.153 52.309 0.006 0.004 0.013 0.013 0.019 0.017 0.003 0.004 0.006 0.004 0.010 0.009l292.649 284.569c21.116 20.534 54.882 20.061 75.418-1.056z" />
<glyph unicode="&#xe901;" glyph-name="Arrow-chevron-right" d="M336.316 761.286c-20.535-21.117-20.063-54.883 1.054-75.417l267.818-260.431-267.818-260.433c-21.117-20.531-21.589-54.298-1.054-75.418 20.535-21.116 54.301-21.585 75.418-1.054l292.637 284.57c0.009 0.009 0.021 0.017 0.030 0.030 13.999 13.606 22.153 32.393 22.153 52.305 0 19.925-8.166 38.724-22.182 52.335l-292.637 284.567c-21.117 20.535-54.883 20.063-75.418-1.054z" />
<glyph unicode="&#xe902;" glyph-name="Arrow-down-1" d="M9.372 649.356c12.496 12.497 32.757 12.498 45.255 0.002l457.373-457.332 457.374 457.332c12.497 12.496 32.759 12.495 45.257-0.002 12.493-12.497 12.493-32.759-0.004-45.255l-457.37-457.327c-11.998-12.015-28.279-18.765-45.257-18.765s-33.259 6.75-45.257 18.765l-457.37 457.327c-12.497 12.496-12.498 32.757-0.002 45.255z" />
<glyph unicode="&#xe903;" glyph-name="Arrow-drop-down" d="M273.669 576c-38.012 0-57.048-45.958-30.17-72.836l238.327-238.327c16.661-16.661 43.678-16.661 60.339 0l238.327 238.327c26.88 26.878 7.842 72.836-30.17 72.836h-476.655z" />
<glyph unicode="&#xe904;" glyph-name="Arrow-drop-up" d="M273.669 234.667c-38.012 0-57.048 45.956-30.17 72.836l238.327 238.327c16.661 16.663 43.678 16.663 60.339 0l238.327-238.327c26.88-26.88 7.842-72.836-30.17-72.836h-476.655z" />
<glyph unicode="&#xe905;" glyph-name="Arrow-expand-less" d="M176.152 209.933c21.117-20.535 54.883-20.066 75.417 1.054l260.431 267.814 260.429-267.814c20.535-21.12 54.302-21.589 75.418-1.054 21.12 20.531 21.589 54.298 1.058 75.413l-284.57 292.64c-0.004 0.004-0.009 0.007-0.013 0.011-0.004 0.006-0.009 0.012-0.017 0.018-13.606 14-32.393 22.152-52.305 22.152s-38.699-8.152-52.305-22.152c-0.009-0.006-0.013-0.012-0.017-0.018-0.004-0.003-0.009-0.007-0.013-0.011l-284.567-292.64c-20.535-21.116-20.063-54.882 1.054-75.413z" />
<glyph unicode="&#xe906;" glyph-name="Arrow-expand-more" d="M176.152 576.82c21.117 20.535 54.883 20.063 75.417-1.054l260.431-267.814 260.429 267.814c20.535 21.117 54.302 21.589 75.418 1.054 21.12-20.535 21.589-54.3 1.058-75.418l-284.57-292.638c-0.004-0.004-0.009-0.009-0.013-0.009-0.004-0.009-0.009-0.013-0.017-0.021-13.606-13.999-32.393-22.153-52.305-22.153s-38.699 8.154-52.305 22.153c-0.009 0.009-0.013 0.013-0.017 0.021-0.004 0-0.009 0.004-0.013 0.009l-284.567 292.638c-20.535 21.117-20.063 54.883 1.054 75.418z" />
<glyph unicode="&#xe907;" glyph-name="Check-circle" d="M0 426.71c0 282.769 229.23 511.999 512 511.999s512-229.23 512-511.999c0-282.769-229.231-512-512-512s-512 229.231-512 512zM512 874.709c-247.424 0-448-200.576-448-447.999s200.576-448 448-448 448 200.576 448 448c0 247.423-200.576 447.999-448 447.999zM787.844 672.438c13.867-10.959 16.222-31.083 5.265-44.948l-334.473-423.171c-15.010-19.58-38.527-30.754-63.201-30.016-24.645 0.738-47.427 13.265-61.249 33.664l-104.343 148.079c-10.18 14.447-6.721 34.411 7.726 44.591s34.411 6.72 44.591-7.727l104.966-148.979c2.293-3.426 6.1-5.534 10.22-5.658 4.12-0.119 8.046 1.754 10.54 5.035l0.376 0.486 334.636 423.382c10.957 13.865 31.083 16.221 44.945 5.263z" />
<glyph unicode="&#xe908;" glyph-name="Arrow-left-1" d="M788.058 929.294c12.497-12.497 12.497-32.758 0-45.255l-457.373-457.373 457.373-457.374c12.497-12.497 12.497-32.755 0-45.252s-32.759-12.497-45.257 0l-457.37 457.37c-0.002 0-0.003 0.004-0.005 0.004-12.011 11.998-18.76 28.275-18.76 45.252s6.749 33.254 18.76 45.252c0.002 0 0.003 0.004 0.005 0.004l457.37 457.371c12.497 12.497 32.759 12.497 45.257 0z" />
<glyph unicode="&#xe909;" glyph-name="Arrow-right-1" d="M276.039 929.294c12.497 12.497 32.758 12.497 45.255 0l457.373-457.371c12.011-11.998 18.765-28.279 18.765-45.257s-6.754-33.259-18.765-45.257l-457.373-457.37c-12.497-12.497-32.758-12.497-45.255 0s-12.497 32.755 0 45.252l457.371 457.374-457.371 457.373c-12.497 12.497-12.497 32.758 0 45.255z" />
<glyph unicode="&#xe90a;" glyph-name="Arrow-up-1" d="M9.372 180.041c12.496-12.497 32.757-12.497 45.255-0.004l457.373 457.333 457.374-457.333c12.497-12.493 32.759-12.493 45.257 0.004 12.493 12.497 12.493 32.759-0.004 45.257l-457.37 457.325c-11.998 12.014-28.279 18.765-45.257 18.765s-33.259-6.751-45.257-18.765l-457.37-457.325c-12.497-12.497-12.498-32.759-0.002-45.257z" />
<glyph unicode="&#xe90b;" glyph-name="Check" d="M953.6 712.837c16.666-16.663 16.666-43.677 0-60.34l-576.007-576.008c-16.663-16.661-43.677-16.661-60.34 0l-246.86 246.861c-16.663 16.661-16.663 43.678 0 60.339s43.677 16.661 60.34 0l216.691-216.691 545.838 545.839c16.661 16.662 43.678 16.662 60.339 0z" />
<glyph unicode="&#xe90c;" glyph-name="Calendar" d="M288 938.667c17.673 0 32-14.327 32-32v-96h384v96c0 17.673 14.327 32 32 32s32-14.327 32-32v-96h160c53.018 0 96-42.981 96-96v-704c0-53.018-42.982-96-96-96h-832c-53.019 0-96 42.982-96 96v704c0 53.019 42.981 96 96 96h160v96c0 17.673 14.327 32 32 32zM256 746.667h-160c-17.673 0-32-14.327-32-32v-160h896v160c0 17.673-14.327 32-32 32h-160v-64c0-17.673-14.327-32-32-32s-32 14.327-32 32v64h-384v-64c0-17.673-14.327-32-32-32s-32 14.327-32 32v64zM960 490.667h-896v-480c0-17.673 14.327-32 32-32h832c17.673 0 32 14.327 32 32v480zM192 346.667c0 26.509 21.49 48 48 48s48-21.491 48-48c0-26.509-21.49-48-48-48s-48 21.491-48 48zM464 346.667c0 26.509 21.491 48 48 48s48-21.491 48-48c0-26.509-21.491-48-48-48s-48 21.491-48 48zM736 346.667c0 26.509 21.491 48 48 48s48-21.491 48-48c0-26.509-21.491-48-48-48s-48 21.491-48 48zM192 122.667c0 26.509 21.49 48 48 48s48-21.491 48-48c0-26.509-21.49-48-48-48s-48 21.491-48 48zM464 122.667c0 26.509 21.491 48 48 48s48-21.491 48-48c0-26.509-21.491-48-48-48s-48 21.491-48 48zM736 122.667c0 26.509 21.491 48 48 48s48-21.491 48-48c0-26.509-21.491-48-48-48s-48 21.491-48 48z" />
<glyph unicode="&#xe90d;" glyph-name="Clock" d="M32 426.667c0 265.097 214.903 480 480 480s480-214.903 480-480c0-265.097-214.903-480-480-480s-480 214.903-480 480zM512 842.667c-229.751 0-416-186.249-416-416s186.249-416 416-416c229.751 0 416 186.249 416 416s-186.249 416-416 416zM512 618.667c17.673 0 32-14.327 32-32v-146.748l190.609-190.647c12.497-12.501 12.493-32.759-0.004-45.257-12.497-12.493-32.759-12.493-45.257 0.004l-199.979 200.021c-5.999 6.003-9.37 14.14-9.37 22.626v160c0 17.673 14.327 32 32 32z" />
<glyph unicode="&#xe90e;" glyph-name="Close" d="M147.997 790.711c12.497 12.497 32.758 12.497 45.255 0l318.748-318.749 318.746 318.749c12.497 12.497 32.759 12.497 45.257 0s12.497-32.758 0-45.255l-318.746-318.746 318.746-318.75c12.497-12.497 12.497-32.755 0-45.252s-32.759-12.497-45.257 0l-318.746 318.746-318.748-318.746c-12.497-12.497-32.758-12.497-45.255 0s-12.497 32.755 0 45.252l318.746 318.75-318.746 318.746c-12.497 12.497-12.497 32.758 0 45.255z" />
<glyph unicode="&#xe90f;" glyph-name="Error" d="M0 426.667c0 282.77 229.23 512 512 512s512-229.23 512-512c0-282.769-229.231-512-512-512s-512 229.231-512 512zM512 874.667c-247.424 0-448-200.576-448-448s200.576-448 448-448c247.424 0 448 200.576 448 448s-200.576 448-448 448zM512 746.667c17.673 0 32-14.327 32-32v-352c0-17.673-14.327-32-32-32s-32 14.327-32 32v352c0 17.673 14.327 32 32 32zM464 218.667c0 26.509 21.491 48 48 48s48-21.491 48-48c0-26.509-21.491-48-48-48s-48 21.491-48 48z" />
<glyph unicode="&#xe910;" glyph-name="House-1" d="M513.995 891.638c10.949 8.255 26.046 8.252 36.991-0.008l445.153-335.872c0.823-0.618 1.61-1.278 2.363-1.975 15.036-13.915 24.089-33.121 25.248-53.576 0.033-0.582 0.049-1.159 0.049-1.741v-513.147c-0.16-38.986-31.744-70.537-70.726-70.656h-267.194c-16.966 0-30.72 13.754-30.72 30.72v215.040c0 67.867-55.013 122.88-122.88 122.88-67.863 0-122.879-55.013-122.879-122.88v-214.917c0-16.966-13.754-30.72-30.72-30.72h-267.235c-38.989 0.119-70.566 31.699-70.685 70.685v512.995c0 0.565 0.016 1.13 0.047 1.696 1.133 20.492 10.201 39.733 25.282 53.65 0.748 0.69 1.529 1.342 2.342 1.955l445.565 335.872zM106.937 507.854c-2.704-2.847-4.376-6.525-4.737-10.445v-511.779c0.032-5.177 4.222-9.372 9.4-9.404h236.36v184.197c0 101.798 82.521 184.32 184.319 184.32s184.32-82.522 184.32-184.32v-184.32h236.319c5.194 0.033 9.4 4.235 9.441 9.425v511.853c-0.369 3.936-2.048 7.627-4.76 10.49l-425.124 320.76-425.539-320.776z" />
<glyph unicode="&#xe911;" glyph-name="Info" d="M0 426.667c0 282.77 229.23 512 512 512s512-229.23 512-512c0-282.769-229.231-512-512-512s-512 229.231-512 512zM512 874.667c-247.424 0-448-200.576-448-448s200.576-448 448-448c247.424 0 448 200.576 448 448s-200.576 448-448 448zM448 634.667c0 26.51 21.491 48 48 48s48-21.49 48-48c0-26.51-21.491-48-48-48s-48 21.49-48 48zM416 490.667c0 17.673 14.327 32 32 32h32c35.345 0 64-28.655 64-64v-160c0-17.673 14.327-32 32-32h32c17.673 0 32-14.327 32-32s-14.327-32-32-32h-32c-53.018 0-96 42.982-96 96v160h-32c-17.673 0-32 14.327-32 32z" />
<glyph unicode="&#xe912;" glyph-name="Navigation-circle-horizontal" d="M256 405.334c0-58.91-47.756-106.667-106.667-106.667s-106.667 47.756-106.667 106.667c0 58.91 47.756 106.667 106.667 106.667s106.667-47.756 106.667-106.667zM618.667 405.334c0-58.91-47.756-106.667-106.667-106.667s-106.667 47.756-106.667 106.667c0 58.91 47.756 106.667 106.667 106.667s106.667-47.756 106.667-106.667zM981.333 405.334c0-58.91-47.756-106.667-106.667-106.667s-106.667 47.756-106.667 106.667c0 58.91 47.756 106.667 106.667 106.667s106.667-47.756 106.667-106.667z" />
<glyph unicode="&#xe913;" glyph-name="Search" d="M325.428 804.159c-183.336-77.916-268.795-289.703-190.88-473.040 77.916-183.333 289.704-268.796 473.036-190.878 33.96 14.43 64.561 33.456 91.386 56.041l235.041-235.078c11.997-11.997 31.449-11.997 43.446 0 11.997 11.993 11.997 31.445 0 43.442l-235.057 235.090c84.685 100.667 111.038 244.187 56.066 373.542-77.918 183.336-289.702 268.795-473.038 190.88zM679.809 262.196c-0.586-0.504-1.159-1.032-1.712-1.589-0.561-0.561-1.098-1.139-1.606-1.729-26.042-25.649-57.254-46.928-92.938-62.091-152.105-64.643-327.816 6.259-392.46 158.364-64.643 152.109 6.259 327.819 158.366 392.463 152.109 64.644 327.819-6.259 392.462-158.365 48.828-114.896 20.32-243.264-62.112-327.052z" />
<glyph unicode="&#xe915;" glyph-name="Warning" d="M463.134 850.254c27.439 59.864 111.979 61.296 141.427 2.397l405.542-811.080c26.069-52.139-11.849-113.489-70.144-113.489h-818.781c-57.14 0-95.097 59.149-71.289 111.095l413.245 811.077zM939.959 6.503l-405.538 811.077-413.243-811.077h818.781zM488.777 158.439c0 24.363 19.75 44.113 44.113 44.113s44.109-19.75 44.109-44.113c0-24.363-19.746-44.113-44.109-44.113s-44.113 19.75-44.113 44.113zM532.89 614.255c16.239 0 29.406-13.167 29.406-29.408v-294.074c0-16.243-13.167-29.41-29.406-29.41-16.243 0-29.41 13.167-29.41 29.41v294.074c0 16.241 13.167 29.408 29.41 29.408z" />
<glyph unicode="&#xe916;" glyph-name="Shape1" d="M776.559 896l-247.437-446.771h494.878l-247.441 446.771zM776.559 730.44l111.262-200.977h-222.524l111.262 200.977zM240.702 409.114c-132.747 0-240.702-107.955-240.702-240.704 0-132.745 107.955-240.7 240.702-240.7s240.702 107.955 240.702 240.7c0 132.749-107.955 240.704-240.702 240.704zM561.638 368.994v-441.284h441.284v441.284h-441.284zM240.702 328.879c88.498 0 160.468-71.97 160.468-160.469s-71.97-160.469-160.468-160.469c-88.498 0-160.468 71.97-160.468 160.469s71.97 160.469 160.468 160.469zM641.873 288.76h280.815v-280.819h-280.815v280.819z" />
<glyph unicode="&#xe917;" glyph-name="View-1" d="M491.524 733.822c177.943 2.758 356.311-120.14 466.076-240.824l0.098-0.111c33.866-37.597 33.866-94.7 0-132.297l-0.086-0.098c-107.266-118.051-285.2-243.757-466.088-240.955-180.893-2.802-358.785 122.909-465.973 240.964l-0.082 0.090c-33.866 37.597-33.866 94.7 0 132.297l0.088 0.098c109.652 120.697 288.021 243.594 465.967 240.836zM71.082 451.726c-12.763-14.213-12.763-35.762 0.002-49.975 102.755-113.152 265.142-223.379 419.924-220.774 0.193 0.004 0.385 0.004 0.578 0.004 0.152 0 0.303-0.004 0.455-0.004 154.78-2.605 317.211 107.622 420.053 220.783 12.755 14.213 12.755 35.754-0.004 49.963-105.087 115.515-267.973 223.225-420.049 220.66-0.344-0.006-0.688-0.006-1.036 0-152.078 2.565-314.966-105.151-419.922-220.656zM578.433 513.596c-23.044 23.052-54.309 35.999-86.905 35.99-67.858 0-122.882-55.008-122.888-122.871-0.006-67.858 54.997-122.876 122.86-122.888 67.858-0.012 122.884 54.985 122.9 122.847 0.016 32.596-12.923 63.869-35.967 86.921zM675.84 426.659c0.025 48.894-19.386 95.797-53.957 130.376s-81.465 54.002-130.363 53.991zM675.84 426.659c-0.033-101.79-82.563-184.291-184.353-184.271-101.791 0.016-184.296 82.543-184.287 184.336 0.009 101.787 82.533 184.298 184.32 184.302z" />
<glyph unicode="&#xe918;" glyph-name="View-off" d="M904.143 816.582c11.747-12.239 11.35-31.686-0.889-43.436l-768-737.278c-12.239-11.751-31.686-11.354-43.436 0.885s-11.352 31.687 0.887 43.434l767.999 737.282c12.239 11.75 31.687 11.353 43.438-0.886zM491.594 703.142c35.779 0.365 71.455-3.823 106.172-12.462 16.466-4.097 26.493-20.765 22.393-37.229-4.096-16.464-20.763-26.489-37.229-22.392-29.782 7.411-60.387 10.988-91.075 10.643l-0.852 0.002c-152.078 2.528-314.967-105.264-419.934-220.697-12.752-14.205-12.76-35.734-0.023-49.943 31.443-34.41 65.758-66.085 102.574-94.671 13.4-10.408 15.828-29.704 5.422-43.106-10.405-13.398-29.704-15.827-43.105-5.423-39.605 30.757-76.517 64.827-110.336 101.851l-0.145 0.156 0.001 0.004c-33.866 37.597-33.866 94.7 0 132.297l0.095 0.102c109.66 120.622 288.066 243.624 466.040 240.868zM784.142 572.579c10.002 13.704 29.221 16.704 42.926 6.701 47.313-34.538 91.038-73.753 130.499-117.043l0.123-0.135c33.866-37.597 33.866-94.7 0-132.297l-0.090-0.102c-107.291-118.079-285.286-243.818-466.227-240.951-45.191-0.299-90.162 6.369-133.324 19.775-16.203 5.030-25.258 22.245-20.226 38.449 5.032 16.2 22.246 25.256 38.449 20.226 37.232-11.563 76.030-17.302 115.015-17.011l0.745-0.004c154.78-2.605 317.211 107.622 420.053 220.787 12.751 14.205 12.755 35.738 0.008 49.947-36.667 40.219-77.292 76.644-121.25 108.734-13.705 10.003-16.703 29.221-6.701 42.925zM491.504 518.827c-32.588 0.009-63.848-12.935-86.892-35.979s-35.987-54.301-35.978-86.893c0.005-16.966-13.746-30.724-30.712-30.728s-30.724 13.746-30.728 30.712c-0.013 48.89 19.403 95.785 53.974 130.354 34.571 34.571 81.463 53.987 130.353 53.974 16.966-0.005 30.716-13.762 30.712-30.728s-13.763-30.716-30.728-30.712zM645.104 426.708c16.966 0.004 30.724-13.746 30.728-30.712 0.012-48.894-19.399-95.789-53.969-130.367-34.566-34.574-81.457-54.002-130.351-54.002-16.966 0-30.72 13.754-30.72 30.72s13.754 30.72 30.72 30.72c32.596 0 63.857 12.952 86.901 36.004 23.048 23.048 35.987 54.313 35.979 86.909-0.004 16.966 13.746 30.724 30.712 30.728z" />
<glyph unicode="&#xe919;" glyph-name="Bell-converted" d="M499.925 937.131c-7.191-2.091-12.991-6.958-16.272-13.334l-0.069-0.148c-2.645-5.376-3.2-11.861-3.712-44.245l-0.64-37.931-5.376-0.853-18.176-2.731c-92.587-13.867-182.016-71.040-234.965-150.101-40.661-60.715-60.075-125.312-60.245-200.533-0.341-143.061-22.357-269.995-56.789-327.467-6.315-10.496-7.040-12.8-6.912-22.485 0.085-12.075 3.371-19.413 11.307-25.344l4.821-3.584 791.979-0.896 6.656 3.755c11.477 6.443 19.712 21.973 17.579 33.28-0.555 2.987-4.437 9.429-8.661 14.336-34.56 40.533-56.491 165.845-56.917 325.845-0.128 55.467-8.533 98.261-28.331 144.64-45.525 106.581-142.933 185.088-255.659 206.165 0.246 0.272-9.436 2.045-19.148 3.729l-15.625 2.244-0.64 37.931c-0.683 42.624-1.877 47.573-12.8 54.315-6.485 4.011-23.808 5.888-31.403 3.413zM553.387 775.595c95.104-14.251 180.224-77.269 218.965-162.048 21.632-47.36 25.941-70.656 28.075-151.893 2.005-74.795 3.797-103.637 9.557-151.893 5.291-44.416 16.085-95.275 26.923-126.72l4.267-12.373h-661.76l5.035 14.933c14.379 42.539 25.6 97.579 32.213 158.293 3.243 30.123 5.291 65.664 6.869 121.173 1.621 55.168 3.285 72.661 9.344 96.427 28.672 112.939 123.051 197.163 240.725 214.784 17.067 2.56 60.715 2.219 79.787-0.683zM415.573 40.619c-12.629-4.437-21.333-14.933-21.333-25.728 0-13.739 10.923-38.656 24.533-55.979 13.568-17.28 39.296-33.792 62.635-40.192 14.976-4.096 46.208-4.096 61.312 0.043 22.272 6.059 46.507 20.949 60.501 37.163 19.115 22.187 30.592 53.717 24.917 68.523-4.181 11.136-20.949 19.157-36.992 17.835-12.032-0.981-17.451-6.101-24.32-22.912-6.187-15.232-12.928-24.107-23.595-31.189-9.899-6.571-18.859-9.045-32.085-8.96-25.003 0.213-44.373 14.805-53.973 40.661-2.448 6.33-5.857 11.767-10.106 16.425l0.036-0.041c-5.973 5.973-6.997 6.4-16.384 6.272-5.39-0.021-10.606-0.72-15.582-2.016l0.435 0.096z" />
</font>
</defs>
</svg>
